<?xml version="1.0" standalone="no"?>
  <!DOCTYPE svg PUBLIC "-//W3C//DTD SVG 1.1//EN" "http://www.w3.org/Graphics/SVG/1.1/DTD/svg11.dtd" >
  <svg>
  <metadata>
  Created by font-carrier
  </metadata>
  <defs>
  <font id="iconfont" horiz-adv-x="1024" vert-adv-y="1024" >
    <font-face
      
      font-family="iconfont"
      
      font-weight="400"
      
      font-stretch="normal"
      
      units-per-em="1024"
      
      ascent="812"
      
      descent="-212"
      
    />
      <missing-glyph />

      
      <glyph glyph-name="x" unicode="&#x78;" horiz-adv-x="100"
        d="M20 20 L50 20 L50 -20 Z" />
      

      
      <glyph glyph-name="bankcard" unicode="&#xE001;" d="M948.736 658.4H75.264A71.68 71.68 0 0 1 0 591.328V8.672A71.68 71.68 0 0 1 75.264-58.4H948.736A71.68 71.68 0 0 1 1024 8.672V591.328A71.68 71.68 0 0 1 948.736 658.4ZM67.584 543.2H955.904V401.376H67.584ZM751.104 137.184M763.392 137.184L944.128 137.184Q956.416 137.184 956.416 124.896L956.416 16.864Q956.416 4.576 944.128 4.576L763.392 4.576Q751.104 4.576 751.104 16.864L751.104 124.896Q751.104 137.184 763.392 137.184ZM67.584 331.232H322.56V263.648H67.584ZM416.768 331.232H671.744V263.648H416.768Z"  horiz-adv-x="1024" vert-adv-y="1024"  />

      
      <glyph glyph-name="ai" unicode="&#xE002;" d="M42.88 300A40.96 40.96 0 0 1 0 257.12V86.24A40.32 40.32 0 0 1 42.88 44 39.68 39.68 0 0 1 85.12 86.24V257.12A40.32 40.32 0 0 1 42.88 300ZM981.12 300A40.32 40.32 0 0 1 938.88 257.12V86.24A39.68 39.68 0 0 1 981.12 44 40.32 40.32 0 0 1 1024 86.24V257.12A40.96 40.96 0 0 1 981.12 300ZM640 453.6H554.88V525.92A108.16 108.16 0 0 1 618.88 623.84 105.6 105.6 0 0 1 512 730.72 108.8 108.8 0 0 1 405.12 623.84 108.16 108.16 0 0 1 469.12 525.92V453.6H384A277.76 277.76 0 0 1 384-101.28H640A277.76 277.76 0 0 1 640 453.6ZM362.88 90.72A85.76 85.76 0 1 0 448 175.84 82.56 82.56 0 0 0 362.88 90.72ZM661.12 90.72A85.76 85.76 0 1 0 746.88 175.84 82.56 82.56 0 0 0 661.12 90.72Z"  horiz-adv-x="1024" vert-adv-y="1024"  />

      
      <glyph glyph-name="autoReply" unicode="&#xE003;" d="M512 722.4A422.4 422.4 0 1 1 934.4 300 421.76 421.76 0 0 1 512 722.4ZM448 241.12V131.04L238.72 323.04 451.2 500.32V396.64A320 320 0 0 0 753.92 99.68 346.24 346.24 0 0 1 448 241.12Z"  horiz-adv-x="1024" vert-adv-y="1024"  />

      
      <glyph glyph-name="close" unicode="&#xE004;" d="M285.44 571.36L783.36 73.44 738.56 28.64 240.64 526.56ZM783.36 526.56L285.44 28.64 240.64 73.44 738.56 571.36Z"  horiz-adv-x="1024" vert-adv-y="1024"  />

      
      <glyph glyph-name="menu_sel" unicode="&#xE005;" d="M240.2133 231.3067H400.64A42.6667 42.6667 0 0 0 446.2933 185.6533V-19.5733A51.2 51.2 0 0 0 391.68-65.2267H194.56A42.6667 42.6667 0 0 0 149.3333-19.5733V185.6533A42.6667 42.6667 0 0 0 194.9867 231.3067ZM583.2533 231.3067H788.9067A47.36 47.36 0 0 0 834.56 180.5333V-16.16A48.64 48.64 0 0 0 785.4933-65.2267H588.3733A47.36 47.36 0 0 0 537.6-19.5733V185.6533A46.5067 46.5067 0 0 0 588.3733 228.32ZM194.9867 618.72H400.64A42.6667 42.6667 0 0 0 446.2933 576.0533V369.5467A42.6667 42.6667 0 0 0 400.64 323.8933H194.9867A42.6667 42.6667 0 0 0 149.3333 368.6933V573.4933A42.6667 42.6667 0 0 0 194.9867 618.72ZM512 511.2L651.9467 650.72A49.4933 49.4933 0 0 0 721.92 650.72L860.5867 510.7733A49.0667 49.0667 0 0 0 860.5867 441.2267L720.64 300A49.0667 49.0667 0 0 0 650.6667 300L512 441.6533A49.92 49.92 0 0 0 512 511.2Z"  horiz-adv-x="1024" vert-adv-y="1024"  />

      
      <glyph glyph-name="menu_nor" unicode="&#xE006;" d="M400.64 188.64H403.2V-17.8667A16.64 16.64 0 0 0 390.8267-22.56H192.4267A6.4 6.4 0 0 0 192.4267-19.5733V185.6533 188.2133H400.64M400.64 230.88H194.9867A42.6667 42.6667 0 0 1 149.3333 185.6533V-19.5733A42.6667 42.6667 0 0 1 194.56-65.2267H391.68A51.2 51.2 0 0 1 446.2933-19.5733V185.6533A42.6667 42.6667 0 0 1 400.64 231.3067ZM788.9067 188.64S791.4667 185.6533 791.4667 180.5333V-16.16A5.9733 5.9733 0 0 0 785.0667-22.56H588.3733C583.2533-22.56 580.6933-22.56 580.2667-19.5733V185.6533A13.2267 13.2267 0 0 0 588.8 185.6533H789.3333M789.3333 228.32H583.2533 588.3733A46.5067 46.5067 0 0 1 537.6 185.6533V-19.5733A47.36 47.36 0 0 1 588.3733-65.2267H785.4933A48.64 48.64 0 0 1 834.56-16.16V180.5333A47.36 47.36 0 0 1 788.9067 231.3067ZM400.64 576.0533H403.6267V366.9867H190.2933A14.9333 14.9333 0 0 0 190.2933 369.9733V575.6267H400.64M400.64 618.2933H194.9867A42.6667 42.6667 0 0 1 149.3333 573.4933V368.6933A42.6667 42.6667 0 0 1 194.9867 323.04H400.64A42.6667 42.6667 0 0 1 446.2933 368.6933V575.2A42.6667 42.6667 0 0 1 400.64 617.8667ZM686.5067 622.56A7.2533 7.2533 0 0 0 691.2 622.56L829.8667 482.6133A7.2533 7.2533 0 0 0 832 477.4933 7.2533 7.2533 0 0 0 829.8667 472.8L690.7733 333.7067A8.96 8.96 0 0 0 685.6533 333.7067 8.1067 8.1067 0 0 0 680.96 333.7067L542.2933 470.6667A7.68 7.68 0 0 0 542.2933 480.0533L682.6667 620.4267A6.4 6.4 0 0 0 687.36 620.4267M687.36 663.0933A48.64 48.64 0 0 1 652.3733 648.5867L512 511.2A49.92 49.92 0 0 1 512 441.6533L650.6667 300A49.4933 49.4933 0 0 1 685.6533 285.4933 48.2133 48.2133 0 0 1 720.64 300L860.16 439.0933A49.0667 49.0667 0 0 1 860.16 508.64L721.4933 650.72A48.2133 48.2133 0 0 1 686.5067 665.2267Z"  horiz-adv-x="1024" vert-adv-y="1024"  />

      
      <glyph glyph-name="notification" unicode="&#xE007;" d="M621.44 605.28V-4.64L370.56 150.88A83.84 83.84 0 0 1 334.08 159.84H211.2V428A8.96 8.96 0 0 0 211.2 434.4H328.96A78.08 78.08 0 0 1 371.84 447.2L621.44 606.56M621.44 670.56A64 64 0 0 1 588.16 660.96L332.16 499.04H210.56A68.48 68.48 0 0 1 144 428V172A68.48 68.48 0 0 1 208 100.96H328.96A17.92 17.92 0 0 0 336.64 100.96L592.64-56.48A51.2 51.2 0 0 1 624.64-66.08 56.96 56.96 0 0 1 653.44-58.4 64 64 0 0 1 688 1.76V604A64 64 0 0 1 653.44 663.52 58.88 58.88 0 0 1 624.64 671.2ZM803.84 31.84A29.44 29.44 0 0 0 785.28 38.24 31.36 31.36 0 0 0 778.24 83.04 364.8 364.8 0 0 1 773.76 516.32 32.64 32.64 0 0 0 780.16 561.76 33.28 33.28 0 0 0 825.6 555.36 428.8 428.8 0 0 0 832 44 31.36 31.36 0 0 0 803.84 31.84Z"  horiz-adv-x="1024" vert-adv-y="1024"  />

      
      <glyph glyph-name="quick" unicode="&#xE008;" d="M938.88 321.12H842.88C833.92 257.12 778.88-37.92 536.96-37.92A14.72 14.72 0 0 0 531.2-9.76C535.68-9.76 631.04 34.4 649.6 191.84A1240.32 1240.32 0 0 1 656.64 319.84H563.2C520.96 319.84 510.72 332.64 532.48 368.48L718.72 628.96A35.84 35.84 0 0 0 765.44 628.96L967.68 352.48C986.88 317.28 947.84 318.56 939.52 319.84ZM51.2 587.36M70.4 587.36L502.4 587.36Q521.6 587.36 521.6 568.16L521.6 501.6Q521.6 482.4 502.4 482.4L70.4 482.4Q51.2 482.4 51.2 501.6L51.2 568.16Q51.2 587.36 70.4 587.36ZM389.12 221.92H72.32A19.84 19.84 0 0 0 51.2 240.48V308.32A19.84 19.84 0 0 0 72.32 326.88H392.32A20.48 20.48 0 0 0 414.08 308.32V240.48A20.48 20.48 0 0 0 389.12 221.92ZM434.56-39.2H72.32A19.84 19.84 0 0 0 51.2-20V47.84A19.84 19.84 0 0 0 72.32 67.04H434.56A19.84 19.84 0 0 0 455.68 47.84V-20A19.84 19.84 0 0 0 434.56-39.2Z"  horiz-adv-x="1024" vert-adv-y="1024"  />

      
      <glyph glyph-name="performance" unicode="&#xE009;" d="M736.64 364H864.64A33.28 33.28 0 0 0 898.56 330.72V-117.28A33.28 33.28 0 0 0 864.64-150.56H736.64A33.28 33.28 0 0 0 703.36-117.28V330.72A33.28 33.28 0 0 0 736.64 364ZM448 268H576A33.28 33.28 0 0 0 607.36 236V-113.44A33.28 33.28 0 0 0 576-148H448A33.28 33.28 0 0 0 414.72-114.72V236A33.28 33.28 0 0 0 448 268ZM160.64 140H288.64A33.28 33.28 0 0 0 320 108V-113.44A33.28 33.28 0 0 0 286.08-146.72H160.64A33.28 33.28 0 0 0 128-114.72V108A33.28 33.28 0 0 0 160.64 140ZM869.76 486.24A48.64 48.64 0 0 0 821.76 534.88V652H704A48 48 0 0 0 704 748H869.12A48 48 0 0 0 917.12 700V534.88A48 48 0 0 0 869.76 486.24ZM153.6 342.24A47.36 47.36 0 0 0 106.24 390.88 46.08 46.08 0 0 0 120.96 424.8L224.64 524A192 192 0 0 0 484.48 532.32 97.92 97.92 0 0 1 612.48 532.32L791.04 684A48 48 0 1 0 855.04 612.32L855.04 612.32 675.2 461.28A195.84 195.84 0 0 0 419.2 461.28 97.28 97.28 0 0 1 291.2 456.8L186.88 355.68A48.64 48.64 0 0 0 153.6 342.24Z"  horiz-adv-x="1024" vert-adv-y="1024"  />

      
      <glyph glyph-name="review" unicode="&#xE00A;" d="M816.64 65.76H657.28C603.52 13.92 520.96-79.52 520.96-79.52A12.16 12.16 0 0 0 503.04-79.52L362.88 65.76H207.36A111.36 111.36 0 0 0 102.4 179.04V577.12A104.32 104.32 0 0 0 204.8 684H819.2A104.32 104.32 0 0 0 921.6 577.76V179.04A111.36 111.36 0 0 0 816.64 65.76ZM304.64 419.04A53.12 53.12 0 1 1 358.4 364 52.48 52.48 0 0 1 307.2 417.12ZM509.44 419.04A53.12 53.12 0 1 1 563.2 364 52.48 52.48 0 0 1 512 419.04ZM714.24 419.04A53.12 53.12 0 1 1 768 364 52.48 52.48 0 0 1 716.8 417.12Z"  horiz-adv-x="1024" vert-adv-y="1024"  />

      
      <glyph glyph-name="store_sel" unicode="&#xE00B;" d="M878.5067 373.8133A113.0667 113.0667 0 0 0 682.6667 300 113.0667 113.0667 0 0 0 597.3333 262.88 107.0933 107.0933 0 0 0 512 300 114.7733 114.7733 0 0 0 426.6667 262.88 118.1867 118.1867 0 0 0 341.3333 300 114.7733 114.7733 0 0 0 256 262.88 110.5067 110.5067 0 0 0 143.36 371.68 95.1467 95.1467 0 0 0 151.4667 414.3467L190.2933 627.68A42.6667 42.6667 0 0 0 232.96 660.5333H787.6267A42.6667 42.6667 0 0 0 830.2933 627.68L872.96 414.3467A141.6533 141.6533 0 0 0 878.5067 373.8133ZM825.1733 232.5867V7.3067A68.2667 68.2667 0 0 0 757.76-60.5333H261.9733A68.2667 68.2667 0 0 0 194.56 7.3067V232.5867A165.12 165.12 0 0 1 346.0267 238.56 157.0133 157.0133 0 0 1 509.8667 238.56 157.0133 157.0133 0 0 1 673.7067 238.56 165.5467 165.5467 0 0 1 825.1733 232.5867Z"  horiz-adv-x="1024" vert-adv-y="1024"  />

      
      <glyph glyph-name="service_2" unicode="&#xE00C;" d="M915.7486 449.2114H896C844.0686 617.44 689.0057 734.4686 512 734.4686 334.9943 734.4686 179.9314 618.1714 128.7314 449.9429H108.2514C81.92 449.9429 59.9771 428.7314 59.9771 401.6686V276.5943C59.9771 250.2629 81.1886 228.32 108.2514 228.32H169.6914C196.0229 228.32 217.9657 250.2629 217.9657 276.5943V401.6686C217.9657 421.4171 206.2629 438.24 188.7086 445.5543 236.9829 582.3314 365.7143 675.9543 512 675.9543 659.0171 675.9543 787.0171 582.3314 835.2914 445.5543 818.4686 438.24 806.0343 421.4171 806.0343 401.6686V276.5943C806.0343 255.3829 819.9314 237.8286 839.68 231.2457 806.7657 122.9943 721.92 38.1486 613.6686 4.5029 599.7714 48.3886 559.5429 79.84 512 79.84 452.7543 79.84 405.2114 31.5657 405.2114-26.9486S452.7543-134.4686 512-134.4686C561.0057-134.4686 601.9657-101.5543 614.4-56.2057 616.5943-56.2057 618.0571-56.2057 620.2514-55.4743 757.0286-17.44 863.8171 90.8114 900.3886 228.32H915.7486C942.08 228.32 964.0229 250.2629 964.0229 276.5943V401.6686C963.2914 428 942.08 449.2114 915.7486 449.2114ZM159.4514 286.8343H119.2229V390.6971H159.4514V286.8343ZM512-75.2229C484.9371-75.2229 463.7257-53.28 463.7257-26.9486S485.6686 21.3257 512 21.3257C539.0629 21.3257 560.2743-0.6171 560.2743-26.9486S539.0629-75.2229 512-75.2229ZM904.7771 286.8343H864.5486V390.6971H904.7771V286.8343ZM425.6914 429.4629C425.6914 453.6 405.9429 473.3486 381.8057 473.3486S337.92 453.6 337.92 429.4629 357.6686 385.5771 381.8057 385.5771 425.6914 405.3257 425.6914 429.4629ZM641.4629 473.3486A43.8857 43.8857 0 1 1 641.4629 385.5771 43.8857 43.8857 0 1 1 641.4629 473.3486ZM663.4057 250.2629C668.5257 261.2343 663.4057 274.4 652.4343 279.52 641.4629 284.64 628.2971 279.52 623.1771 268.5486 607.0857 231.2457 562.4686 207.1086 512.7314 207.1086 461.5314 207.1086 416.9143 231.9771 400.8229 269.28 395.7029 280.2514 382.5371 285.3714 371.5657 280.9829 360.5943 275.8629 355.4743 263.4286 359.8629 251.7257 382.5371 198.3314 443.9771 162.4914 512 162.4914 579.2914 163.2229 640 198.3314 663.4057 250.2629Z"  horiz-adv-x="1024" vert-adv-y="1024"  />

      
      <glyph glyph-name="store_nor" unicode="&#xE00D;" d="M788.0533 617.8667L830.72 404.5333V399.4133A90.0267 90.0267 0 0 0 834.56 372.1067 69.12 69.12 0 0 0 768 307.68 68.2667 68.2667 0 0 0 715.52 330.72L682.6667 365.28 651.0933 330.72A73.3867 73.3867 0 0 0 596.48 307.68 64.4267 64.4267 0 0 0 545.28 329.44L512 366.9867 478.72 330.72A71.2533 71.2533 0 0 0 426.24 307.68 76.8 76.8 0 0 0 370.3467 332.4267L341.3333 363.5733 311.4667 330.72A72.1067 72.1067 0 0 0 258.9867 307.68 67.4133 67.4133 0 0 0 189.0133 373.8133 50.3467 50.3467 0 0 0 192.4267 395.5733L195.4133 401.12V407.0933L234.24 617.8667H788.9067M788.9067 660.5333H234.24A42.6667 42.6667 0 0 1 191.5733 627.68L152.7467 414.3467A95.1467 95.1467 0 0 1 144.64 371.68 110.5067 110.5067 0 0 1 257.28 262.88 114.7733 114.7733 0 0 1 341.3333 300 118.1867 118.1867 0 0 1 426.6667 262.88 113.92 113.92 0 0 1 512 300 107.0933 107.0933 0 0 1 597.3333 262.88 113.0667 113.0667 0 0 1 682.6667 300 113.0667 113.0667 0 0 1 879.36 371.68 141.6533 141.6533 0 0 1 873.3867 414.3467L830.72 627.68A42.6667 42.6667 0 0 1 788.0533 660.5333ZM782.5067 219.7867V6.4533A25.6 25.6 0 0 0 757.76-18.72H261.9733A25.6 25.6 0 0 0 237.2267 6.4533V219.7867A170.6667 170.6667 0 0 0 194.56 232.5867V7.3067A68.2667 68.2667 0 0 1 261.9733-60.5333H757.76A68.2667 68.2667 0 0 1 825.1733 7.3067V232.5867A145.4933 145.4933 0 0 0 782.5067 219.7867Z"  horiz-adv-x="1024" vert-adv-y="1024"  />

      
      <glyph glyph-name="update" unicode="&#xE00E;" d="M757.76 441.44A286.08 286.08 0 0 1 205.44 385.12 215.68 215.68 0 0 1 64 181.6 211.2 211.2 0 0 1 276.48-30.88H456.32V166.24H339.2A7.04 7.04 0 0 0 333.44 177.12L502.4 364A11.52 11.52 0 0 0 520.96 364L689.28 176.48A6.4 6.4 0 0 0 684.16 165.6H567.68V-31.52H747.52A240.64 240.64 0 0 1 960 205.92 234.88 234.88 0 0 1 757.76 441.44Z"  horiz-adv-x="1024" vert-adv-y="1024"  />

      
      <glyph glyph-name="staff" unicode="&#xE00F;" d="M832 690.4H195.2A72.96 72.96 0 0 1 121.6 616.8V-20A72.96 72.96 0 0 1 195.2-90.4H832A72.96 72.96 0 0 1 902.4-20V616.8A72.96 72.96 0 0 1 832 690.4ZM411.52 502.88A137.6 137.6 0 0 0 612.48 502.88 139.52 139.52 0 0 0 652.16 405.6 135.68 135.68 0 0 0 609.92 304.48 141.44 141.44 0 0 0 371.84 405.6 140.16 140.16 0 0 0 411.52 502.88ZM738.56 71.52A41.6 41.6 0 0 0 709.12 53.6H314.88A36.48 36.48 0 0 0 285.44 68.96 46.08 46.08 0 0 0 278.4 108 146.56 146.56 0 0 0 327.68 191.2 133.76 133.76 0 0 0 409.6 222.56H424.32A195.84 195.84 0 0 1 512 200.16 195.84 195.84 0 0 1 599.68 222.56H615.04A119.68 119.68 0 0 0 693.76 191.2 181.12 181.12 0 0 0 746.24 108 46.72 46.72 0 0 0 738.56 71.52Z"  horiz-adv-x="1024" vert-adv-y="1024"  />

      
      <glyph glyph-name="user_nor" unicode="&#xE010;" d="M523.9467 214.6667C694.6133 208.2667 847.7867 148.1067 853.3333 86.6667V-10.1867H170.6667V80.6933C170.6667 144.2667 312.7467 204 487.68 214.24H523.9467M523.9467 256.9067H485.5467C313.6 247.0933 128 186.5067 128 80.6933V-53.7067H896V86.6667C889.6 189.0667 697.6 250.08 524.8 257.3333ZM512 611.04A139.9467 139.9467 0 1 0 372.0533 470.6667 142.5067 142.5067 0 0 0 414.72 569.6533 139.52 139.52 0 0 0 513.7067 612.32M513.7067 654.9867A183.04 183.04 0 0 1 329.3867 470.6667 182.6133 182.6133 0 0 1 512 288.9067 182.6133 182.6133 0 0 1 694.6133 470.6667 182.6133 182.6133 0 0 1 512 653.7067Z"  horiz-adv-x="1024" vert-adv-y="1024"  />

      
      <glyph glyph-name="workorder" unicode="&#xE011;" d="M810.24 690.4H213.76A64 64 0 0 1 149.76 626.4V-26.4A64 64 0 0 1 213.76-90.4H810.24A64 64 0 0 1 874.24-26.4V626.4A64 64 0 0 1 810.24 690.4ZM480.64 84.96H330.24A30.08 30.08 0 0 0 330.24 145.12H480.64A30.08 30.08 0 1 0 480.64 84.96ZM693.76 269.92H330.24A30.08 30.08 0 0 0 330.24 330.08H693.76A30.08 30.08 0 0 0 693.76 269.92ZM693.76 454.88H330.24A30.08 30.08 0 0 0 330.24 515.04H693.76A30.08 30.08 0 1 0 693.76 454.88Z"  horiz-adv-x="1024" vert-adv-y="1024"  />

      
      <glyph glyph-name="vip" unicode="&#xE012;" d="M518.4-101.92A30.08 30.08 0 0 0 496-92.32L56.96 355.68A32 32 0 0 0 56.96 397.28L269.44 689.12A34.56 34.56 0 0 0 295.68 701.92H743.68A31.36 31.36 0 0 0 769.92 687.84L971.52 394.72A31.36 31.36 0 0 0 968.32 354.4L542.72-93.6A33.28 33.28 0 0 0 518.4-101.92ZM121.6 379.36L518.4-23.84 902.4 379.36 724.48 635.36H311.68ZM518.4 152.16A25.6 25.6 0 0 0 499.84 159.84L287.36 376.16A25.6 25.6 0 0 0 287.36 412.64 26.24 26.24 0 0 0 323.84 412.64L515.84 214.88 704 412A25.6 25.6 0 0 0 741.12 376.8L536.96 159.84C531.84 154.72 524.16 149.6 518.4 152.16Z"  horiz-adv-x="1024" vert-adv-y="1024"  />

      
      <glyph glyph-name="icon_service" unicode="&#xE013;" d="M512 541.28A310.4 310.4 0 0 0 822.4 230.88 273.92 273.92 0 0 0 822.4 197.6 576 576 0 0 0 709.12 158.56 675.84 675.84 0 0 0 597.76 141.92 55.68 55.68 0 0 1 545.28 172H481.28A55.68 55.68 0 0 1 481.28 60.64H545.28A55.68 55.68 0 0 1 596.48 94.56 800.64 800.64 0 0 1 716.8 108 673.28 673.28 0 0 1 807.04 136.16 310.4 310.4 0 1 0 512 541.28ZM512 679.52A448 448 0 0 1 192 547.68 457.6 457.6 0 0 1 78.72 355.68H64A64 64 0 0 1 0 291.68V188.64A64 64 0 0 1 64 124.64H112A38.4 38.4 0 0 1 150.4 163.04V349.28A368.64 368.64 0 0 0 245.12 497.76 379.52 379.52 0 0 0 512 609.12 375.68 375.68 0 0 0 780.16 497.76 384 384 0 0 0 869.76 356.32V160.48A38.4 38.4 0 0 1 908.16 121.44H960A64 64 0 0 1 1024 185.44V291.68A64 64 0 0 1 960 355.68H946.56A456.32 456.32 0 0 1 833.92 547.68 448 448 0 0 1 512 679.52Z"  horiz-adv-x="1024" vert-adv-y="1024"  />

      
      <glyph glyph-name="user_sel" unicode="&#xE014;" d="M512 653.7067A183.04 183.04 0 0 1 329.3867 470.6667 182.6133 182.6133 0 0 1 512 288.9067 182.6133 182.6133 0 0 1 694.6133 470.6667 182.6133 182.6133 0 0 1 512 653.7067ZM524.8 257.3333H486.4C313.6 247.0933 128 186.5067 128 80.6933V-53.7067H896V86.6667C889.6 189.4933 697.6 250.5067 524.8 257.3333Z"  horiz-adv-x="1024" vert-adv-y="1024"  />

      
      <glyph glyph-name="copy" unicode="&#xE015;" d="M685.44-92.32H151.68A32 32 0 0 0 119.68-60.32V473.44A32 32 0 0 0 151.68 505.44H685.44A32 32 0 0 0 717.44 473.44V-60.32A32 32 0 0 0 685.44-92.32ZM183.68-28.32H653.44V441.44H183.68ZM872.32 94.56H790.4A32 32 0 0 0 790.4 158.56H840.32V628.32H370.56V579.68A32 32 0 0 0 306.56 579.68V660.32A32 32 0 0 0 338.56 692.32H872.32A32 32 0 0 0 904.32 660.32V126.56A32 32 0 0 0 872.32 94.56ZM263.04 158.56M295.04 158.56L448.64 158.56Q480.64 158.56 480.64 126.56L480.64 126.56Q480.64 94.56 448.64 94.56L295.04 94.56Q263.04 94.56 263.04 126.56L263.04 126.56Q263.04 158.56 295.04 158.56ZM263.04 318.56M295.04 318.56L542.72 318.56Q574.72 318.56 574.72 286.56L574.72 286.56Q574.72 254.56 542.72 254.56L295.04 254.56Q263.04 254.56 263.04 286.56L263.04 286.56Q263.04 318.56 295.04 318.56Z"  horiz-adv-x="1024" vert-adv-y="1024"  />

      
      <glyph glyph-name="min" unicode="&#xE016;" d="M192 332H832V268H192Z"  horiz-adv-x="1024" vert-adv-y="1024"  />

      
      <glyph glyph-name="max" unicode="&#xE017;" d="M768 492V108H256V492H768M832 556H192V44H832V556Z"  horiz-adv-x="1024" vert-adv-y="1024"  />

      
      <glyph glyph-name="restore" unicode="&#xE018;" d="M807.04 595.04H354.56V457.44H216.96V4.96H669.44V142.56H807.04ZM605.44 68.96H280.96V393.44H605.44ZM743.04 206.56H669.44V457.44H418.56V531.04H743.04Z"  horiz-adv-x="1024" vert-adv-y="1024"  />

      
      <glyph glyph-name="br" unicode="&#xE019;" d="M768 556A256 256 0 1 1 768 44 256 256 0 1 1 768 556ZM847.36 334.56L856.96 356.96 877.44 348 867.84 325.6ZM864 345.44L864 341.6 874.24 337.12 874.24 340.96ZM0 812H1536V-212H0ZM160.64 300L768-87.84 1375.36 300 768 687.84ZM768 556A256 256 0 1 1 768 44 256 256 0 1 1 768 556ZM0-212A622.08 622.08 0 0 0 1243.52-212H1207.04A585.6 585.6 0 0 1 36.48-212ZM549.76 374.88A11.52 11.52 0 0 1 559.36 388.32 12.16 12.16 0 0 1 546.56 399.2 11.52 11.52 0 0 1 537.6 385.76 10.88 10.88 0 0 1 549.76 374.88M549.76 379.36C553.6 379.36 555.52 383.2 555.52 387.68A7.68 7.68 0 0 1 547.84 394.72 7.04 7.04 0 0 1 542.72 386.4 6.4 6.4 0 0 1 549.76 379.36M569.6 376.8H576V386.4H585.6A7.04 7.04 0 0 1 592.64 394.72 7.68 7.68 0 0 1 584.32 401.76L570.88 401.76ZM569.6 390.88H582.4A3.2 3.2 0 0 1 585.6 394.08 3.84 3.84 0 0 1 581.76 394.08H576ZM590.08 378.72S590.08 389.6 584.32 388.96H576C583.04 388.96 583.68 381.92 584.32 378.08M600.32 378.72H611.84A10.24 10.24 0 0 1 622.08 388.96V393.44A10.88 10.88 0 0 1 611.2 403.68H600.32ZM604.8 383.84H611.2A7.04 7.04 0 0 1 618.24 390.24V390.24A7.68 7.68 0 0 1 611.2 396.64H604.8ZM631.68 379.36H653.44V383.2H635.52V389.6H648.96V393.44H636.16V399.2H652.8V403.04H632.32ZM662.4 378.08H666.24L666.24 394.72 669.44 378.08H673.28L679.68 394.08 679.68 377.44H683.52L683.52 401.76H677.76L671.36 385.12 671.36 402.4H664.96ZM712.96 372.32L730.88 372.32V372.96L716.8 372.96 716.8 378.72 728.32 378.72V383.2L716.8 383.2V388.96L730.24 388.96V390.88L712.96 390.88ZM759.04 364L763.52 364 763.52 372.96 772.48 372.96A7.68 7.68 0 0 1 782.08 378.08 7.68 7.68 0 0 1 776.32 387.68L762.88 387.68ZM768 374.88L777.6 374.88 777.6 374.88S777.6 378.72 777.6 378.72L768.64 378.72ZM789.12 355.04L793.6 355.04 793.6 364 802.56 360.8A7.68 7.68 0 0 1 807.68 375.52L794.24 379.36ZM797.44 364L806.4 364A0 0 90 0 1 810.24 364 0 0 90 0 1 810.24 367.84L801.28 367.84ZM808.96 348.64C808.96 352.48 808.96 359.52 808.96 361.44L802.56 361.44C810.24 361.44 807.68 351.84 807.04 348M832 341.6A12.16 12.16 0 0 1 837.12 364 10.88 10.88 0 0 1 823.04 356.32 11.52 11.52 0 0 1 828.8 340.96M828.8 345.44A7.68 7.68 0 0 1 834.56 359.52 7.68 7.68 0 0 1 825.6 355.04C825.6 350.56 825.6 346.72 828.8 345.44M857.6 330.08A11.52 11.52 0 0 1 872.32 337.12 11.52 11.52 0 0 1 867.2 352.48 10.88 10.88 0 0 1 852.48 345.44 10.88 10.88 0 0 1 857.6 330.08M857.6 334.56C860.8 334.56 864.64 334.56 866.56 339.04A7.68 7.68 0 0 1 863.36 348.64 7.68 7.68 0 0 1 854.4 344.16 7.68 7.68 0 0 1 854.4 334.56M864 340.96L872.32 337.12 872.32 337.12 864 340.96ZM869.12 338.4L872.32 338.4 867.84 326.88 864.64 326.88ZM875.52 321.76L880 321.76 883.84 330.08 892.8 325.6A8.32 8.32 0 0 1 903.04 325.6 8.32 8.32 0 0 1 899.2 336.48L887.04 342.24ZM885.76 332L894.08 328.16A0 0 90 0 1 898.56 328.16 0 0 90 0 1 898.56 332L889.6 336.48ZM896 312.8S901.12 323.04 896 324.96L889.6 328.16C896.64 324.32 893.44 317.92 889.6 314.72M903.04 307.68L922.24 297.44 922.24 301.28 906.88 309.6 906.88 315.36 919.04 308.32 919.04 312.16 906.88 319.2 906.88 323.04 921.6 314.72 921.6 319.2 903.04 329.44ZM938.88 296.16S938.88 291.68 942.08 289.76 946.56 289.76 947.84 289.76 935.04 300 939.52 307.68 951.04 307.68 953.6 307.68A7.68 7.68 0 0 0 953.6 296.8L952.32 300S952.32 303.84 952.32 305.76 948.48 305.76 947.2 305.76 960 295.52 955.52 288.48A9.6 9.6 0 0 0 942.08 288.48S931.2 293.6 934.4 300ZM965.12 278.88S965.12 274.4 965.12 272.48 970.24 272.48 970.88 272.48 958.72 283.36 963.84 290.4 974.72 290.4 977.28 290.4 984.32 284 977.28 279.52L972.8 279.52S972.8 284 972.8 285.92 968.96 285.92 967.04 285.92 979.84 275.68 974.72 268.64 965.12 268.64 961.28 268.64 960 276.96 960 282.08ZM990.08 250.72A11.52 11.52 0 0 1 1006.08 250.72 12.16 12.16 0 0 1 1006.08 267.36 11.52 11.52 0 0 1 990.08 267.36 11.52 11.52 0 0 1 990.08 250.72M990.08 254.56A6.4 6.4 0 0 1 999.68 254.56 7.04 7.04 0 0 1 999.68 264.16C996.48 264.16 992.64 264.16 989.44 264.16A7.04 7.04 0 0 1 989.44 254.56M558.72 356.96L555.52 346.72 560.64 346.72M558.72 356.96L562.56 346.72 557.44 346.72M569.6 349.28H558.72V344.16M569.6 349.28L560.64 342.88 560.64 347.36M548.48 349.28L557.44 342.88 557.44 347.36M548.48 349.28H559.36V344.16M565.76 337.12L561.92 347.36 556.8 347.36M565.76 337.12L556.8 343.52 560 348M552.32 337.12L561.28 343.52 561.28 348M552.32 337.12L556.16 347.36 561.28 347.36M581.76 249.44L576 236 581.12 236M581.76 249.44L584.96 236 579.84 236M592 241.76H581.12V236M592 241.76L583.04 236 583.04 240.48M571.52 241.76L579.84 235.36 579.84 239.84M571.52 241.76H582.4V236M588.16 229.6L588.16 239.84 579.2 236M588.16 229.6L579.2 236 579.2 240.48M576 229.6L584.32 236 581.12 240.48M576 229.6L576 239.84 581.12 239.84M550.4 224.48L550.4 215.52 554.88 215.52M550.4 224.48L550.4 215.52 545.92 215.52M558.72 218.08H549.76V213.6M558.72 218.08L551.68 212.96 551.68 216.8M541.44 218.08L549.12 212.96 549.12 216.8M541.44 218.08H551.04V213.6M555.52 207.84L555.52 216.8 551.04 216.8M555.52 207.84L548.48 213.6 548.48 213.6M544.64 207.84L552.32 213.6 552.32 213.6M544.64 207.84L547.84 216.8 552.32 216.8M606.72 259.04L606.72 254.56 606.72 254.56M606.72 259.04L606.72 254.56 606.72 254.56M611.84 255.84H606.72V255.84M611.84 255.84L607.36 252.64 607.36 252.64M601.6 255.84L606.08 252.64 606.08 252.64M601.6 255.84H606.72V255.84M609.92 250.08L609.92 254.56H609.92M609.92 250.08L605.44 250.08 605.44 250.08M603.52 250.08L608 250.08 608 250.08M603.52 250.08L603.52 254.56H603.52M634.88 221.92L634.88 213.6 638.72 213.6M634.88 221.92L638.08 213.6 633.6 213.6M643.84 215.52H634.24V211.04M643.84 215.52L636.16 210.4 636.16 214.24M626.56 215.52L633.6 210.4 633.6 214.24M626.56 215.52H635.52V211.04M640 205.28L640 214.24 635.52 214.24M640 205.28L632.32 211.04 632.32 214.88M629.76 205.28L640 211.04 640 214.88M629.76 205.28L629.76 214.24 634.24 214.24M627.2 195.04L627.2 188 630.4 188M627.2 195.04L627.2 188 623.36 188M634.24 189.92H627.2V186.08M634.24 189.92L628.48 185.44 628.48 185.44M620.16 189.92L626.56 185.44 626.56 185.44M620.16 189.92H627.84V186.08M631.68 181.6L631.68 188.64 628.48 188.64M631.68 181.6L625.92 186.08 625.92 186.08M622.72 181.6L629.12 186.08 629.12 186.08M622.72 181.6L622.72 188.64 625.92 188.64M847.36 390.24L844.16 380 849.28 380M847.36 390.24L847.36 380 842.24 380M857.6 382.56H846.72V377.44M857.6 382.56L849.28 376.16 845.44 380.64M837.12 382.56L846.08 376.16 846.08 380.64M837.12 382.56H848V377.44M853.76 370.4L850.56 381.28 845.44 381.28M853.76 370.4L844.8 376.8 848 381.28M840.96 370.4L849.92 376.8 849.92 381.28M840.96 370.4L840.96 381.28 846.08 381.28M947.2 221.28L944 210.4 949.12 210.4M947.2 221.28L951.04 210.4 945.28 210.4M960 213.6H948.48V207.84M960 213.6L951.04 207.2 947.84 211.68M936.96 213.6L945.92 207.2 949.12 211.68M936.96 213.6H947.84V207.84M953.6 201.44L950.4 211.68 945.28 211.68M953.6 201.44L944.64 207.84 948.48 212.32M940.8 201.44L949.76 207.84 946.56 212.32M940.8 201.44L944 211.68 949.76 211.68M983.04 214.88L983.04 207.84H986.88M983.04 214.88L983.04 207.84H979.84M990.08 209.76H982.4V206.56M990.08 209.76L983.68 205.92 983.68 205.92M976 209.76L981.76 205.92 981.76 205.92M976 209.76H983.04V206.56M986.88 202.08L986.88 208.48H983.68M986.88 202.08L981.12 205.92 981.12 209.12M978.56 202.08L984.32 205.92 984.32 209.12M978.56 202.08L978.56 208.48H981.76M960 196.96L956.8 188 961.28 188M960 196.96L960 188 955.52 188M966.4 190.56H960V185.44M966.4 190.56L960 184.8 956.8 188.64M949.12 190.56L960 184.8 960 188.64M949.12 190.56H960V185.44M963.2 180.32L963.2 188.64 958.72 188.64M963.2 180.32L955.52 185.44 960 189.28M952.32 180.32L960 185.44 960 189.28M952.32 180.32L952.32 188.64 956.16 188.64M896 143.2L896 134.24 900.48 134.24M896 143.2L899.2 134.24 894.72 134.24M904.96 136.8H896V132.32M904.96 136.8L897.28 131.04 897.28 134.88M887.68 136.8L894.72 131.04 894.72 134.88M887.68 136.8H896V132.32M901.76 126.56L896 134.88 891.52 134.88M901.76 126.56L896 131.68 896 135.52M890.88 126.56L897.92 131.68 897.92 135.52M890.88 126.56L890.88 134.88 895.36 134.88M896 115.68L896 108 896 108M896 115.68L896 108 896 108M903.04 108H896V108M903.04 108L896 108 896 108M888.96 108L896 108 896 108M888.96 108H896V108M899.84 102.24L896 108 896 108M899.84 102.24L896 108 896 108M891.52 102.24L896 108 896 108M891.52 102.24L896 108 896 108M921.6 161.12L921.6 154.72 925.44 154.72M921.6 161.12L921.6 154.72 917.76 154.72M928.64 156.64H920.96V152.8M928.64 156.64L922.88 152.16 922.88 152.16M914.56 156.64L920.32 152.16 920.32 152.16M914.56 156.64H922.24V152.8M926.08 148.32L926.08 155.36 926.08 155.36M926.08 148.32L919.68 152.16 919.68 155.36M917.12 148.32L923.52 152.16 923.52 155.36M917.12 148.32L917.12 155.36 920.32 155.36M942.08 175.84L942.08 167.52 945.92 167.52M942.08 175.84L942.08 167.52 937.6 167.52M951.04 172H941.44V166.88M951.04 172L943.36 166.24 943.36 170.08M933.76 172L940.8 166.24 940.8 170.08M933.76 172H942.72V166.88M947.84 159.84L944.64 168.16 940.16 168.16M947.84 159.84L940.16 164.96 940.16 168.8M936.96 159.84L944 164.96 944 168.8M936.96 159.84L936.96 168.16 941.44 168.16M896 166.24L896 159.2 899.84 159.2M896 166.24L896 159.2 896 159.2M902.4 161.12H896V157.28M902.4 161.12L896 156.64 896 159.84M888.32 161.12L894.08 156.64 894.08 159.84M888.32 161.12H896V157.28M899.2 152.8L899.2 159.84 895.36 159.84M899.2 152.8L896 157.28 896 160.48M890.88 152.8L896.64 157.28 896.64 160.48M890.88 152.8L890.88 159.84 894.72 159.84M670.72 300L667.52 291.04 672 291.04M670.72 300L670.72 291.04 666.24 291.04M679.04 292.32H670.08V287.84M679.04 292.32L672 287.2 668.8 287.2M661.76 292.32L669.44 287.2 669.44 287.2M661.76 292.32H670.72V287.84M675.84 282.08L675.84 291.04 671.36 291.04M675.84 282.08L668.16 287.84 671.36 287.84M664.96 282.08L672.64 287.84 672.64 287.84M664.96 282.08L664.96 291.04 668.8 291.04M837.76 320.48L837.76 313.44 841.6 313.44M837.76 320.48L837.76 313.44 837.76 313.44M844.8 315.36H837.12V311.52M844.8 315.36L838.4 310.88 838.4 310.88M832 315.36L837.76 310.88 837.76 310.88M832 315.36H839.04V311.52M842.24 307.04L842.24 314.08 842.24 314.08M842.24 307.04L835.84 311.52 835.84 311.52M832 307.04L837.76 311.52 837.76 311.52M832 307.04L832 314.08 832 314.08M768 196.32L768 185.44 773.12 185.44M768 196.32L771.2 185.44 766.08 185.44M778.24 188.64H768V182.88M778.24 188.64L769.28 182.24 769.28 186.72M757.76 188.64L766.72 182.24 766.72 186.72M757.76 188.64H768V182.88M774.4 176.48L774.4 186.72 768 184.8M774.4 176.48L768 182.88 768 187.36M761.6 176.48L770.56 182.88 770.56 187.36M761.6 176.48L761.6 186.72 766.72 186.72M797.44 244.96L797.44 236.64 801.92 236.64M797.44 244.96L797.44 236.64 792.96 236.64M806.4 236H797.44V236M806.4 236L798.72 236 798.72 239.84M789.12 236L796.16 230.88 796.16 234.72M789.12 236H798.08V236M803.2 228.32L800 236 795.52 236M803.2 228.32L795.52 236 795.52 236M792.32 228.32L799.36 236 799.36 236M792.32 228.32L792.32 237.28 796.8 237.28M768 268L768 259.04 771.84 259.04M768 268L768 259.04 764.16 259.04M776.96 261.6H768V257.12M776.96 261.6L768 256.48 768 260.32M759.04 261.6L766.72 256.48 766.72 260.32M759.04 261.6H768V257.12M773.12 251.36L773.12 260.32 768.64 260.32M773.12 251.36L768 257.12 768 260.32M762.88 251.36L768 257.12 768 260.32M762.88 251.36L762.88 260.32 767.36 260.32M742.4 243.04L742.4 236H746.24M742.4 243.04L742.4 236H739.2M749.44 236H741.76V236M749.44 236L743.04 232.16 743.04 232.16M735.36 236L741.12 232.16 741.12 232.16M735.36 236H742.4V236M746.24 230.24L746.24 236.64H742.4M746.24 230.24L740.48 236 740.48 236M737.92 230.24L743.68 236 743.68 236M737.92 230.24L737.92 236.64H737.92M755.2 223.2L755.2 218.72 755.2 218.72M755.2 223.2L755.2 218.72 755.2 218.72M760.32 220H754.56V220M760.32 220L755.84 216.8 755.84 216.8M750.08 220L754.56 216.8 754.56 216.8M750.08 220H755.2V220M758.4 214.24L758.4 218.72H758.4M758.4 214.24L753.92 214.24 753.92 214.24M752 214.24L756.48 214.24 756.48 214.24M752 214.24L752 218.72H752M844.8 136.8L844.8 127.84 849.28 127.84M844.8 136.8L844.8 127.84 840.32 127.84M853.12 130.4H844.16V125.92M853.12 130.4L846.08 125.28 846.08 128.48M835.84 130.4L843.52 125.28 843.52 128.48M835.84 130.4H844.8V125.92M849.92 120.16L849.92 129.12 845.44 129.12M849.92 120.16L842.88 125.28 842.88 129.12M839.04 120.16L846.72 125.28 846.72 129.12M839.04 120.16L842.24 129.12 846.72 129.12M866.56 157.28L866.56 150.88 870.4 150.88M866.56 157.28L866.56 150.88 862.72 150.88M873.6 152.8H865.92V148.96M873.6 152.8L867.84 148.32 867.84 148.32M859.52 152.8L865.28 148.32 865.28 148.32M859.52 152.8H867.2V148.96M871.04 144.48L871.04 151.52 867.84 151.52M871.04 144.48L864.64 148.32 864.64 148.32M862.08 144.48L868.48 148.32 868.48 148.32M862.08 144.48L862.08 151.52 865.28 151.52M824.32 163.68L824.32 156.64H827.52M824.32 163.68L824.32 156.64H820.48M832 158.56H824.96V158.56M832 158.56L826.24 154.72 826.24 154.72M817.28 158.56L823.68 154.72 823.68 154.72M817.28 158.56H824.96V158.56M832 150.88L832 157.28H828.8M832 150.88L826.24 154.72 826.24 154.72M819.84 150.88L826.24 154.72 826.24 154.72M819.84 150.88L819.84 157.28H823.04M664.96 172L661.76 161.76 666.88 161.76M664.96 172L668.8 161.76 663.68 161.76M675.84 167.52H664.96V161.76M675.84 167.52L666.88 161.12 663.68 165.6M654.72 167.52L663.68 161.12 666.88 165.6M654.72 167.52H665.6V161.76M672 155.36L668.16 165.6 663.04 165.6M672 155.36L663.04 161.76 666.24 166.24M658.56 155.36L667.52 161.76 667.52 166.24M658.56 155.36L662.4 165.6 667.52 165.6M768 103.52L768 99.68H768M768 103.52L768 99.68H768M771.2 100.96H768V100.96M771.2 100.96L771.2 100.96 771.2 100.96M768 100.96L768 100.96 768 100.96M768 100.96H768V100.96M768 96.48V100.32H768M768 96.48L768 96.48V96.48M768 96.48L768 96.48V96.48M768 96.48V100.32H768"  horiz-adv-x="1536" vert-adv-y="1024"  />

      
      <glyph glyph-name="cl" unicode="&#xE01A;" d="M0 812H1536V-212H0ZM0 300V812H512V44ZM0 300H1536V-212H0ZM256 684L331.52 452.32 134.4 595.68H377.6L180.48 452.32Z"  horiz-adv-x="1536" vert-adv-y="1024"  />

      
      <glyph glyph-name="co" unicode="&#xE01B;" d="M0 812H1536V-212H0ZM0 300H1536V-212H0ZM0 44H1536V-212H0Z"  horiz-adv-x="1536" vert-adv-y="1024"  />

      
      <glyph glyph-name="id" unicode="&#xE01C;" d="M0 812H1536V300H0ZM0 300H1536V-212H0Z"  horiz-adv-x="1536" vert-adv-y="1024"  />

      
      <glyph glyph-name="ph" unicode="&#xE01D;" d="M0 812H1536V300H0ZM0 300H1536V-212H0ZM887.04 300L0-212V812M56.96 721.76L87.68 694.88 122.88 714.08 106.88 676.96 136.96 649.44 96.64 649.44 79.36 612.96 69.76 652 30.08 660.32 64 684ZM747.52 353.76L747.52 313.44 785.92 300 747.52 286.56 747.52 246.24 723.2 278.24 684.16 266.72 707.2 300 684.16 333.28 723.2 321.76ZM79.36-16.16L96.64-52.64 136.96-52.64 107.52-80.16 122.88-117.28 87.68-98.08 56.96-124.32 64-84 29.44-62.88 69.76-57.76ZM323.2 515.04L309.76 502.24 316.16 401.76H309.76L297.6 492 286.72 481.12 303.36 399.2A110.08 110.08 0 0 1 266.24 384.48L220.16 454.24H204.8L261.12 380.64 256 376.8 192 452.32H170.88V433.76L246.4 364 241.92 364 168.96 418.4V403.04L238.08 356.96A110.08 110.08 0 0 1 223.36 319.84L141.44 336.48 128 325.6 219.52 313.44A21.76 21.76 0 0 1 219.52 307.04L119.04 313.44 108.16 300 120.96 286.56 221.44 293.6V286.56L128 274.4 138.88 264.16 220.8 280.16A106.88 106.88 0 0 1 235.52 243.68L166.4 196.96V181.6L241.92 236 246.4 230.88 170.88 166.88V147.68H192L256 223.2 261.12 219.36 204.8 145.76H220.16L266.24 215.52A95.36 95.36 0 0 1 303.36 200.16L286.72 118.24 297.6 107.36 309.76 198.88H316.16L309.76 99.04 323.2 85.6 336.64 99.04 329.6 198.24H336L348.16 108 359.04 118.88 343.04 200.16A96.64 96.64 0 0 1 379.52 215.52L426.24 145.76H441.6L384 219.36 390.4 223.2 454.4 147.68H473.6V166.88L398.08 230.88 403.84 236 477.44 179.68V196.96L407.68 243.68A92.8 92.8 0 0 1 423.04 280.16L504.96 264.16 515.84 274.4 424.32 286.56S424.32 291.04 424.32 293.6L524.16 287.2 538.24 300 524.8 313.44 424.96 307.04V313.44L515.84 325.6 504.96 335.84 423.04 319.84A99.2 99.2 0 0 1 407.68 356.96L477.44 403.04V418.4L403.84 364 400 364 475.52 428V447.2H456.32L390.4 376.8 384 380.64 441.6 454.24H426.24L379.52 385.12A101.76 101.76 0 0 1 343.04 399.84L359.04 481.76 348.8 492 336.64 401.12H329.6L336 501.6Z"  horiz-adv-x="1536" vert-adv-y="1024"  />

      
      <glyph glyph-name="service" unicode="&#xE01E;" d="M512.256-159.776A466.368 466.368 0 0 0 63.36 184.672 459.712 459.712 0 0 0 109.888 538.4 468.928 468.928 0 0 0 391.488 754.848 459.008 459.008 0 0 0 745.024 708.32 469.12 469.12 0 0 0 961.344 426.72 450.56 450.56 0 0 0 970.624 233.568 47.04 47.04 0 1 0 877.568 247.52 353.792 353.792 0 0 1 870.592 403.424 366.336 366.336 0 0 1 698.496 629.152 371.968 371.968 0 1 1 609.984-52.768 45.696 45.696 0 0 0 633.216-141.216 373.504 373.504 0 0 0 512.256-159.84ZM70.016 387.68A68.736 68.736 0 0 1 0.192 317.28V223.712A69.824 69.824 0 1 1 139.84 223.712V317.28A70.4 70.4 0 0 1 70.016 387.68ZM954.368 387.68A68.736 68.736 0 0 1 884.544 317.28V223.712A69.824 69.824 0 1 1 1024.192 223.712V317.28A70.4 70.4 0 0 1 954.176 387.68ZM278.976 305.696A93.568 93.568 0 1 1 372.544 399.264 93.568 93.568 0 0 1 278.976 305.696ZM557.952 305.696A93.568 93.568 0 1 1 651.52 399.264 93.568 93.568 0 0 1 557.888 305.696Z"  horiz-adv-x="1024" vert-adv-y="1024"  />

      
      <glyph glyph-name="my" unicode="&#xE01F;" d="M0 812H1536V-212H0ZM0-139.04H1536V-212H0ZM0 7.52H1536V-65.44H0ZM0 153.44H1536V80.48H0ZM0 300H1536V227.04H0ZM0 446.56H1536V372.96H0ZM0 592.48H1536V519.52H0ZM0 739.04H1536V665.44H0ZM0 812H768V227.04H0ZM293.12 739.04A219.52 219.52 0 1 1 293.12 300 215.04 215.04 0 0 1 412.16 335.2 188.16 188.16 0 0 0 348.16 324.32 192 192 0 1 0 348.16 713.44 199.04 199.04 0 0 0 416 701.28 221.44 221.44 0 0 1 293.12 739.04ZM658.56 404.96L565.76 453.6 593.28 354.4 529.28 437.6 512 336.48 492.8 437.6 428.8 355.04 458.24 453.6 365.44 405.6 433.92 483.04 328.96 479.2 425.6 519.52 328.96 560.48 434.56 556 365.44 633.44 458.24 585.44 430.72 684 494.72 601.44 512 702.56 531.2 601.44 593.92 684 565.76 584.8 658.56 633.44 590.08 556 695.04 559.84 598.4 519.52 695.04 478.56 589.44 483.04Z"  horiz-adv-x="1536" vert-adv-y="1024"  />

      
      <glyph glyph-name="th" unicode="&#xE020;" d="M0 812H1536V-212H0ZM0 465.12H1536V124H0ZM0 812H1536V636H0ZM0-41.12H1536V-212H0Z"  horiz-adv-x="1536" vert-adv-y="1024"  />

      
      <glyph glyph-name="vn" unicode="&#xE021;" d="M0 812H1536V-212H0ZM947.84 13.28L768 147.04 590.72 12 654.72 231.52 478.72 364 698.88 364 768 588 837.76 369.76H1057.92L880 232.8 947.84 13.28Z"  horiz-adv-x="1536" vert-adv-y="1024"  />

      
      <glyph glyph-name="tw" unicode="&#xE022;" d="M0 812H1536V-212H0ZM0 812H768V300H0ZM328.32 541.28L323.2 520.8 343.04 515.04 339.2 530.4ZM428.8 530.4L424.96 515.04 448 520.8 442.88 541.28ZM339.2 581.6L328.32 570.72 332.8 556ZM332.8 556L328.32 541.28 339.2 530.4ZM328.32 570.72L313.6 556 328.32 541.28 332.8 556ZM358.4 511.2L369.28 500.32 384 504.8ZM398.72 500.32L419.2 492 424.96 511.84 409.6 511.2ZM409.6 511.2L424.96 515.04 428.8 530.4ZM345.6 515.04L348.8 492 369.28 497.12 358.4 511.2ZM384 504.8L398.72 500.32 409.6 511.2ZM369.28 500.32L384 485.6 398.72 500.32 384 504.8ZM343.04 596.96L323.2 591.2 328.32 570.72 339.2 581.6ZM339.2 532.96L343.04 517.6 358.4 513.76ZM435.2 556L439.68 570.72 428.8 581.6ZM358.4 600.8L343.04 596.96 339.2 581.6ZM428.8 581.6L424.96 596.96 409.6 600.8ZM439.68 541.28L454.4 556 439.68 570.72 435.2 556ZM428.8 581.6L409.6 600.8 384 607.2 358.4 600.8 339.2 581.6 332.8 556 339.2 530.4 358.4 511.2 384 504.8 409.6 511.2 428.8 530.4 435.2 556ZM428.8 530.4L439.68 541.28 435.2 556ZM439.68 570.72L448 591.2 428.16 596.96 432 581.6ZM424.96 596.96L419.2 616.8 398.72 611.68 409.6 600.8ZM369.28 611.68L348.8 616.8 343.04 596.96 358.4 600.8ZM384 607.2L369.28 611.68 358.4 600.8ZM398.72 611.68L384 626.4 369.28 611.68 384 607.2ZM409.6 600.8L398.72 611.68 384 607.2ZM369.28 500.32L348.8 492 358.4 456.8 384 485.6ZM358.4 460L384 364 409.6 460 384 485.6ZM343.04 515.04L323.2 520.8 313.6 485.6 348.8 492ZM313.6 485.6L288 389.6 358.4 460 348.8 492ZM288 530.4L217.6 460 313.6 485.6 323.2 520.8ZM328.32 541.28L313.6 556 288 530.4 323.2 520.8ZM328.32 570.72L323.2 591.2 288 581.6 313.6 556ZM288 581.6L192 556 288 530.4 313.6 556ZM480 530.4L448 520.8 457.6 485.6 553.6 460ZM424.96 515.04L419.2 492 454.4 482.4 448 520.8ZM398.72 500.32L384 485.6 409.6 460 419.2 492ZM439.68 541.28L448 520.8 480 530.4 454.4 556ZM409.6 460L480 389.6 454.4 485.6 419.2 492ZM424.96 596.96L448 591.2 454.4 626.4 419.2 616.8ZM480 581.6L550.4 652 454.4 626.4 448 591.2ZM454.4 626.4L480 722.4 409.6 652 419.2 616.8ZM480 530.4L576 556 480 581.6 454.4 556ZM439.68 570.72L454.4 556 480 581.6 448 591.2ZM358.4 652L288 722.4 313.6 626.4 348.8 616.8ZM343.04 596.96L348.8 616.8 313.6 626.4 323.2 591.2ZM313.6 626.4L217.6 652 288 581.6 323.2 591.2ZM398.72 611.68L419.2 616.8 409.6 652 384 626.4ZM409.6 652L384 748 358.4 652 384 626.4ZM369.28 611.68L384 626.4 358.4 652 348.8 616.8ZM384 664.8A108.8 108.8 0 1 1 384 447.2 108.8 108.8 0 1 1 384 664.8ZM384 652A96 96 0 1 1 384 460 96 96 0 1 1 384 652Z"  horiz-adv-x="1536" vert-adv-y="1024"  />

      
      <glyph glyph-name="sg" unicode="&#xE023;" d="M0 300H1536V-212H0ZM0 812H1536V300H0ZM398.72 726.24A181.12 181.12 0 0 1 243.2 512.48 192 192 0 0 1 400.64 373.6 211.84 211.84 0 0 0 144.64 501.6H144.64A181.12 181.12 0 0 0 286.08 725.6 216.96 216.96 0 0 0 398.72 725.6ZM367.36 577.12L378.88 545.12 347.52 564.96 320 545.12 331.52 577.12 300.8 596.96H339.2L350.72 628.96 362.88 596.96H400.64ZM408.96 466.4L421.12 434.4 389.76 453.6 359.04 433.76 370.56 466.4 339.84 486.24H378.24L389.76 518.88 401.92 486.88H440.32ZM549.76 466.4L561.28 434.4 529.92 454.24 499.2 434.4 512 467.04 480 486.88H518.4L529.92 518.88 542.08 486.88H579.84ZM591.36 576.48L602.88 544.48 572.16 564.32 541.44 544.48 552.96 576.48 521.6 596.32H560L571.52 628.32 583.68 596.32H622.08ZM480 650.72L492.16 620 460.8 637.92 430.08 620 441.6 652 410.88 672.48H448L460.16 704.48 472.32 672.48H512Z"  horiz-adv-x="1536" vert-adv-y="1024"  />

      
      </font>
</defs>
</svg>
